In.Trance Community: Matthew Dekay - Trousy - In.Trance Community

Перейти к содержимому

Страница 1 из 1
  • Вы не можете создать новую тему
  • Вы не можете ответить в тему

Matthew Dekay - Trousy [2CD 2006] progressive trance

#1 Пользователь офлайн   yulta 

  • In Touch with trance..
  • Иконка
  • Группа: Участник
  • Сообщений: 1083
  • Регистрация: 08-May 06
  • Откуда: SPb
Репутация: -2
Нейтральная

Отправлено 01 September 2006 - 17:01

Matthew Dekay - Trousy

Label: Armada Music
Catalog#: ARMA047
Format: 2xCD , Mixed
Country: Netherlands
Genre: Electronic
Style: Progressive Trance
Quality: VBR kbps
Size: 218MB

Tracklist:
CD1
01. Envotion - Vessel Of Poison (A Soul's Morning Mix)
02. Muzzaik - Faith
03. TM Project - Naturalize (Muzzaik Remix)
04. 16 Bit Lolita's - Mystic
05. Cristiano Vinci & Massimo Licari - Vision (Superjuno Remix)
06. Roland Klinkenberg - Omatic
07. Olivier Berger - Bullets
08. Arpiction - Don't Walk Away (Matthew Dekay Remix)
09. Proluctors - Sunset
10. Pashka - Island Breeze (Tommyboy Dub)
11. Matthew Dekay & Roob V - Dubio
12. Matthew Dekay - Clearing The Mind

CD2
01. Muzzaik - Ain't Right (Tommyboy Remix)
02. Wally Lopez - Ça C'est Paris
03. HH vs. Inkfish - Swallowed By The Night
04. Matthew Dekay & Roob V - 2 Da Groove
05. B.I.G. - Carpe Diem
06. RR Workshop - Electrolux
07. Derek Howell - Yah Yah
08. Matthew Dekay & Roob V - Let The Game Begin
09. Matthew Dekay - Timeless (Dub Mix)
10. Sean Miller - Swells (Chus & Colors Remix)
11. Chris Lake - Release
12. Eye Wall - Bad Deal (DJ Remy & Roland Klinkenberg Remix)

Скрытый текст
[url="http://"http://"]http://www.sendspace.com/file/7wpvgs[/url]

0

#2 Пользователь офлайн   Danski Speed 

  • Участник
  • Иконка
  • Группа: Участник
  • Сообщений: 955
  • Регистрация: 16-May 06
  • Пол: Мужской
  • Откуда: eire
Репутация: 106
Хорошая

Отправлено 02 September 2006 - 16:41

aaaaaaaaaaaaaaaaaaa, yulta!!!!!!!!!!!!!!!!!

когда увидел топик, то чуть не абасрался от щастья!!!! :cry2: :cry2: :D

мэттью дикей это дай боже какой диджей, спасибо!!!!!!!!!!!!!! ;) :icq17:
0

#3 Пользователь офлайн   n00p 

  • Участник
  • Иконка
  • Группа: Участник
  • Сообщений: 628
  • Регистрация: 27-March 06
  • Пол: Мужской
  • Откуда: Kazan4eg
  • Интересы: Music
Репутация: 0
Нейтральная

Отправлено 09 September 2006 - 22:53

Перезалейте плиз эту мега компилууу!!!!!! АААА , пожалуйста!!!! :)
0

#4 Пользователь офлайн   Danski Speed 

  • Участник
  • Иконка
  • Группа: Участник
  • Сообщений: 955
  • Регистрация: 16-May 06
  • Пол: Мужской
  • Откуда: eire
Репутация: 106
Хорошая

Отправлено 10 September 2006 - 06:57

n00p (10.09.2006 - 04:53) писал:

Перезалейте плиз эту мега компилууу!!!!!! АААА , пожалуйста!!!!  :)
<{POST_SNAPBACK}>


на uploading.com пойдет?
0

#5 Пользователь офлайн   In-somnia 

  • d>_<b
  • Иконка
  • Группа: Участник
  • Сообщений: 586
  • Регистрация: 16-June 06
Репутация: 0
Нейтральная

Отправлено 10 September 2006 - 07:31

Бывает же такое ... только захотел скачать и ... опля ... он уже тут :) :lol:

Пасибо :)
0

#6 Пользователь офлайн   Danski Speed 

  • Участник
  • Иконка
  • Группа: Участник
  • Сообщений: 955
  • Регистрация: 16-May 06
  • Пол: Мужской
  • Откуда: eire
Репутация: 106
Хорошая

Отправлено 10 September 2006 - 08:49

cue (для тех кто скачал две большие мп3):

CD1:
PERFORMER "Mixed by Matthew Dekay"
TITLE "Trousy"
FILE "Matthew Dekay-Trousy(CD1)(2005).mp3" Mp3 //вот это заменяем на имя файла
  TRACK 01 AUDIO
    TITLE "Vessel Of Poisson (A Souls Morning Mix)"
    PERFORMER "Evotion feat. Laura Camilla"
    INDEX 01 00:00:00
  TRACK 02 AUDIO
    TITLE "Faith"
    PERFORMER "Mussaik"
    INDEX 01 08:10:52
  TRACK 03 AUDIO
    TITLE "Naturalize (Mussaik Remix)"
    PERFORMER "TM Project"
    INDEX 01 12:31:28
  TRACK 04 AUDIO
    TITLE "Mystic"
    PERFORMER "16 Bit Lolitas feat. Coco"
    INDEX 01 18:38:42
  TRACK 05 AUDIO
    TITLE "Vision (Superjuno Mix)"
    PERFORMER "Cristiano Vinci & Massimo Licari"
    INDEX 01 25:14:67
  TRACK 06 AUDIO
    TITLE "Omatic"
    PERFORMER "Roland Klinkenberg"
    INDEX 01 29:49:09
  TRACK 07 AUDIO
    TITLE "Bullets"
    PERFORMER "Oliver Berger"
    INDEX 01 35:22:68
  TRACK 08 AUDIO
    TITLE "Dont Walk Away (Matthew Dekay Remix)"
    PERFORMER "Apriction"
    INDEX 01 42:39:66
  TRACK 09 AUDIO
    TITLE "Sunset"
    PERFORMER "Proluctors"
    INDEX 01 48:35:55
  TRACK 10 AUDIO
    TITLE "Island Breeze (Tommyboy Dub)"
    PERFORMER "Pashka"
    INDEX 01 54:19:44
  TRACK 11 AUDIO
    TITLE "Dubio"
    PERFORMER "Matthew Dekay & Roob V"
    INDEX 01 61:30:07
  TRACK 12 AUDIO
    TITLE "Clearing The Mind"
    PERFORMER "Matthew Dekay"
    INDEX 01 67:02:14


CD2:

PERFORMER "Mixed by Matthew Dekay"
TITLE "Trousy"
FILE "Matthew Dekay-Trousy(CD2)(2005).mp3" Mp3
  TRACK 01 AUDIO
    TITLE "Aint Right (Tommyboy Remix)"
    PERFORMER "Mussaik"
    INDEX 01 00:00:00
  TRACK 02 AUDIO
    TITLE "Ca Cest Paris"
    PERFORMER "Wally Lopez"
    INDEX 01 07:48:54
  TRACK 03 AUDIO
    TITLE "Swallowed By The Light"
    PERFORMER "HH vs Inkfish"
    INDEX 01 13:50:18
  TRACK 04 AUDIO
    TITLE "Da Groove"
    PERFORMER "Matthew Dekay & Roob V"
    INDEX 01 20:05:17
  TRACK 05 AUDIO
    TITLE "Carpediem"
    PERFORMER "B.I.G."
    INDEX 01 26:04:52
  TRACK 06 AUDIO
    TITLE "Electrolux"
    PERFORMER "RR Workshop"
    INDEX 01 32:48:28
  TRACK 07 AUDIO
    TITLE "Yah Yah"
    PERFORMER "Derek Howell"
    INDEX 01 39:17:06
  TRACK 08 AUDIO
    TITLE "Let The Game Begin"
    PERFORMER "Matthew Dekay & Roob V"
    INDEX 01 47:30:34
  TRACK 09 AUDIO
    TITLE "Timeless (Dub)"
    PERFORMER "Matthew Dekay"
    INDEX 01 54:12:36
  TRACK 10 AUDIO
    TITLE "Swells (Colors & Chus Remix)"
    PERFORMER "Sean Miller"
    INDEX 01 61:22:54
  TRACK 11 AUDIO
    TITLE "Release"
    PERFORMER "Chris Lake"
    INDEX 01 65:27:06
  TRACK 12 AUDIO
    TITLE "Bad Deal (Remy & Roland Klinkenberg Remix)"
    PERFORMER "Eyewall"
    INDEX 01 70:38:71

0

#7 Пользователь офлайн   Alberto 

  • Новичок
  • Иконка
  • Группа: Участник
  • Сообщений: 37
  • Регистрация: 22-April 06
Репутация: 0
Нейтральная

Отправлено 10 September 2006 - 14:39

уахахахахаха прогрессив транс :)
0

#8 Пользователь офлайн   xaid 

  • Иконка
  • Группа: Участник
  • Сообщений: 1321
  • Регистрация: 10-June 06
  • Пол: Мужской
  • Откуда: ???????
Репутация: 206
Отличная

  Отправлено 12 September 2006 - 05:46

купил такой CD в начале лета, заслушиваюсь досих пор
отличная компиляция. на второром диске вообще чума такие темы свёл хоть стой хоть падай
Matthew Dekay & Roob v - let the game begin и Matthew Dekay - timeless [Dub mix]
Dekay & Proluctors Жгут
0

#9 Пользователь офлайн   FRAER_X 

  • Trancecoholic
  • Иконка
  • Группа: Участник
  • Сообщений: 3382
  • Регистрация: 19-September 06
  • Пол: Мужской
  • Откуда: TranceCity
Репутация: 1218
Отличная

Отправлено 19 September 2006 - 21:20

xaidarius (12.09.2006 - 09:46) писал:

купил такой CD в начале лета, заслушиваюсь досих пор
отличная компиляция. на второром диске вообще чума такие темы свёл хоть стой хоть падай
Matthew Dekay & Roob v - let the game begin и  Matthew Dekay - timeless [Dub mix]
Dekay & Proluctors Жгут
<{POST_SNAPBACK}>


Cогласен! :D
0

#10 Пользователь офлайн   Raul7 

  • Новичок
  • Иконка
  • Группа: Участник
  • Сообщений: 31
  • Регистрация: 18-July 06
Репутация: 0
Нейтральная

Отправлено 20 September 2006 - 13:47

Должно быть круто!
0

#11 Пользователь офлайн   registro 

  • Новичок
  • Иконка
  • Группа: Участник
  • Сообщений: 78
  • Регистрация: 25-April 06
Репутация: 2
Нейтральная

Отправлено 03 October 2006 - 17:51

Послушал и не обламался, спасибо.
0

#12 Пользователь офлайн   SeZor 

  • Участник
  • Иконка
  • Группа: Участник
  • Сообщений: 676
  • Регистрация: 02-June 06
  • Пол: Мужской
  • Откуда: ????
Репутация: 0
Нейтральная

Отправлено 04 October 2006 - 17:37

registro (3.10.2006 - 21:51) писал:

Послушал и не обламался, спасибо.
<{POST_SNAPBACK}>

А я обламался, ждал большего..... и трансом, там и не пахнет....... :)
0

#13 Пользователь офлайн   sunplay 

  • yahoo!
  • Иконка
  • Группа: Участник
  • Сообщений: 153
  • Регистрация: 03-April 06
  • Интересы: Music
Репутация: 0
Нейтральная

Отправлено 05 October 2006 - 18:34

там прог хауз.... так на сэндспейсе написано
:icq18:
0

Страница 1 из 1
  • Вы не можете создать новую тему
  • Вы не можете ответить в тему

1 человек читают эту тему
0 пользователей, 1 гостей, 0 скрытых