In.Trance Community: Marcel Woods Live - Trance: A Mission Forsage Club [19-01-08] - In.Trance Community

Перейти к содержимому

  • 2 Страниц +
  • 1
  • 2
  • Вы не можете создать новую тему
  • Вы не можете ответить в тему

Marcel Woods Live - Trance: A Mission Forsage Club [19-01-08] 192kbps

#1 Пользователь офлайн   sergic 

  • Vanguard trancer ©
  • Иконка
  • Группа: Модератор
  • Сообщений: 5171
  • Регистрация: 26-November 07
  • Пол: Мужской
  • Откуда: Moscow
  • Интересы: Car tuning, music, internet...
Репутация: 947
Отличная

Отправлено 26 January 2008 - 00:55

Скрытый текст

Marcel Woods Live - Trance: A Mission  Forsage, Kiev [19-01-08]

Artist............. : Marcel Woods
Quality ........... :192 kbps CBR / 44.1KHz / Joint Stereo
Playtime .......... : 03.18.21
Release Date ...... : 2008-01-19
Size............:272.40 Mb

Tracklist:

01. Meck feat. Dino - Feels Like Home (Marco V Dub)
02. Phatzoo - Poop N Loop (Marco V Remix)
03. First State feat. Anita Kelsey - Falling
04. Sander van Doorn - Bass
05. Cirez D - Teaser (Deadmau5 Remix Version 1)
06. Matt Darey - Like an Animal (Martin Roth Remix)
07. Miko - Muzaik (Marcus Schossow Remix)
08. ID
09. Everything But The Girl - Missing (Tenishia Bootleg Remix)
10. ID
11. D.O.D - Kicks Like A Mule
12. Ronski Speed pres. RST - Stormbound (Maarten de Jong Edit)
13. JES - Heaven (Fonzerelli Remix)
14. Jochen Miller vs Rank 1 - And Then (Original Mix)
15. ID
16. ID
17. Ronald van Gelderen - Dirty Rocker (Dub Mix)
18. Pascal Feliz - Reflect
19. Marcel Woods - Lemon Tree
20. Mojado - Kaktus
21. Marcel Woods - Monotone
22. Three Drives - Greece 2000 (Marcel Woods Remix)
23. ID
24. Marcel Woods - Cherry Blossom
25. Marcel Woods - Advanced
26. Marcel Woods - On Fire
27. Louie Padilla - Sick (Maurizio Gubellini Remix)
28. Warmdue Project - King Of My Castle (Sander van Doorn Remix)
29. Daniele Papini & Riccardo Ferri - Knobers
30. Ronski Speed vs Rex Mundi - The Perspective Space (Markus Schulz Mash Up)
31. Ernesto vs Bastian - Thrill
32. Marcel Woods - New Feeling
33. Energy 52 - Cafe Del Mar (John 00 Flemming Remix)
34. Marco V - False Light (ID Remix)
35. Jochen Miller vs Rank 1 - And Then (Rank 1 Remix)
36. [Encore] Marcel Woods - Beautiful Mind

[url="http://"http://www.filefactory.com/file/ca4733/"]FileFactory[/url]
[url="http://"http://www.megaupload.com/ru/?d=09DAPVGK"]Megaupload[/url]

Прикрепленные файлы


0

#2 Guest_Kontra_*

  • Группа: Гость

Отправлено 26 January 2008 - 07:50

Огромнейшее спасибо! Жаль не удалось сьездить в Киев,но хоть лайв послушаю.. Вудс зе бест! :aikido:

#3 Пользователь офлайн   tokidoki 

  • 東京
  • Иконка
  • Группа: Участник
  • Сообщений: 276
  • Регистрация: 19-December 07
  • Пол: Мужской
  • Откуда: Tokyo ??
Репутация: 7
Нейтральная

Отправлено 26 January 2008 - 11:16

sergic забираю, спасибо!)
0

#4 Пользователь офлайн   Arhiell 

  • NRG
  • Иконка
  • Группа: Участник
  • Сообщений: 489
  • Регистрация: 05-August 07
  • Пол: Мужской
Репутация: 0
Нейтральная

Отправлено 26 January 2008 - 14:52

Так давно хотел послушать !

Спасибо sergic, огромное ! :yes:
0

#5 Пользователь офлайн   kirill_A 

  • ex fo0kY
  • Иконка
  • Группа: Участник
  • Сообщений: 313
  • Регистрация: 31-December 07
  • Пол: Мужской
  • Откуда: Tosno-Len.obl
Репутация: 103
Хорошая

Отправлено 26 January 2008 - 18:30

спасибо щас буду слушать
0

#6 Пользователь офлайн   MOrfiy 

  • ку:?
  • Иконка
  • Группа: Участник
  • Сообщений: 362
  • Регистрация: 25-August 06
  • Пол: Мужской
Репутация: 0
Нейтральная

Отправлено 26 January 2008 - 21:14

спасибки суперский лайф
0

#7 Пользователь офлайн   YtvaR 

  • Осваиваюсь
  • Иконка
  • Группа: Участник
  • Сообщений: 130
  • Регистрация: 21-January 08
  • Пол: Мужской
Репутация: 1
Нейтральная

Отправлено 30 January 2008 - 11:38

sergic спасибо суперр!! :D
0

#8 Пользователь офлайн   Krashin 

  • Новичок
  • Иконка
  • Группа: Участник
  • Сообщений: 70
  • Регистрация: 26-December 07
  • Пол: Мужской
  • Откуда: Ukraine
Репутация: 0
Нейтральная

Отправлено 30 January 2008 - 13:01

Огромнейшее спасибо.Жаль вот только,что я провтыкал его приезд в Киев((((((((((
0

#9 Пользователь офлайн   Troublemaker 

  • Жирный манул
  • Иконка
  • Группа: Участник
  • Сообщений: 1291
  • Регистрация: 29-May 07
  • Пол: Мужской
Репутация: 98
Хорошая

Отправлено 30 January 2008 - 16:16

Прямая ссылка:
Скрытый текст

[url="http://"http://www.extradj.net.ua/wolf/music/Marcel_Woods-Live_at_Trance_a_mission-Forsage_Club-Kiev-19-01-2008-www.extradj.com.mp3"]http://www.extradj.n...extradj.com.mp3[/url]

0

#10 Пользователь офлайн   Day 

  • Осваиваюсь
  • Иконка
  • Группа: Участник
  • Сообщений: 231
  • Регистрация: 23-March 07
  • Пол: Мужской
Репутация: 0
Нейтральная

Отправлено 31 January 2008 - 10:32

Спасибо за прямую ссылочку. Неплохой сет, ценю)
0

#11 Пользователь офлайн   Flaiber 

  • Осваиваюсь
  • Иконка
  • Группа: Участник
  • Сообщений: 141
  • Регистрация: 09-June 07
  • Пол: Мужской
Репутация: 18
Нейтральная

Отправлено 31 January 2008 - 11:14

Спасибо!
Cue есть?
0

#12 Пользователь офлайн   Taronn 

  • Осваиваюсь
  • Иконка
  • Группа: Участник
  • Сообщений: 140
  • Регистрация: 15-September 07
  • Пол: Мужской
Репутация: 1
Нейтральная

Отправлено 31 January 2008 - 15:32

Ребят, помогите пожалуйста.. что за трек на 95 минуте?
0

#13 Пользователь офлайн   DJ_Casper 

  • Осваиваюсь
  • Иконка
  • Группа: Участник
  • Сообщений: 210
  • Регистрация: 05-February 07
Репутация: 1
Нейтральная

Отправлено 01 February 2008 - 22:25

отличный микс сыграл Марсел. Очень пожалел что не знал что Марсел выступал (((
0

#14 Пользователь офлайн   Fast D. 

  • Новичок
  • Иконка
  • Группа: Участник
  • Сообщений: 1
  • Регистрация: 02-February 08
Репутация: 0
Нейтральная

Отправлено 02 February 2008 - 05:34

Решил написать cue прям тут. Кто нибудь знает как называется 15 трек (приблезительно 80 минута) ?

PERFORMER "Marcel Woods"
TITLE "Live At Trance A Mission Forsage, Kiev [19-01-08]"
FILE "Marcel_Woods-Live_at_Trance_a_mission-Forsage_Club-Kiev-19-01-2008-www.extradj.com.mp3" MP3
TRACK 01 AUDIO
PERFORMER "Intro"
TITLE "Intro"
INDEX 01 00:00:00
TRACK 02 AUDIO
PERFORMER "Meck feat. Dino"
TITLE "Feels Like Home (Marco V Dub)"
INDEX 01 0:52:639
TRACK 03 AUDIO
PERFORMER "Phatzoo"
TITLE "Poop N Loop (Marco V Remix)"
INDEX 01 05:43:209
TRACK 04 AUDIO
PERFORMER "First State feat. Anita Kelsey"
TITLE "Falling"
INDEX 01 10:04:554
TRACK 05 AUDIO
PERFORMER "Sander van Doorn"
TITLE "Bass"
INDEX 01 18:33:257
TRACK 06 AUDIO
PERFORMER "Cirez D"
TITLE "Teaser (Deadmau5 Remix Version 1)"
INDEX 01 23:13:336
TRACK 07 AUDIO
PERFORMER "Matt Darey"
TITLE "Like an Animal (Martin Roth Remix)"
INDEX 01 28:16:589
TRACK 08 AUDIO
PERFORMER "Miko"
TITLE "Muzaik (Marcus Schossow Remix)"
INDEX 01 32:53:533
TRACK 09 AUDIO
PERFORMER "ID"
TITLE "ID"
INDEX 01 38:42:854
TRACK 10 AUDIO
PERFORMER "Everything But The Girl"
TITLE "Missing (Tenishia Bootleg Remix)"
INDEX 01 45:44:328
TRACK 11 AUDIO
PERFORMER "ID"
TITLE "ID"
INDEX 01 53:12:131
TRACK 12 AUDIO
PERFORMER "D.O.D"
TITLE "Kicks Like A Mule"
INDEX 01 58:58:999
TRACK 13 AUDIO
PERFORMER "Ronski Speed pres. RST"
TITLE "Stormbound (Maarten de Jong Edit)"
INDEX 01 63:04:256
TRACK 14 AUDIO
PERFORMER "JES"
TITLE "Heaven (Fonzerelli Remix)"
INDEX 01 68:18:620
TRACK 15 AUDIO
PERFORMER "Jochen Miller vs Rank 1"
TITLE "And Then (Original Mix)"
INDEX 01 74:22:895
TRACK 16 AUDIO
PERFORMER "ID"
TITLE "ID"
INDEX 01 79:53:409
TRACK 17 AUDIO
PERFORMER "ID"
TITLE "ID"
INDEX 01 84:00:065
TRACK 18 AUDIO
PERFORMER "Ronald van Gelderen"
TITLE "Dirty Rocker (Dub Mix)"
INDEX 01 86:58:173
TRACK 19 AUDIO
PERFORMER "Pascal Feliz"
TITLE "Reflect"
INDEX 01 92:54:391
TRACK 20 AUDIO
PERFORMER "Marcel Woods"
TITLE "Lemon Tree"
INDEX 01 99:00:778
TRACK 21 AUDIO
PERFORMER "Mojado"
TITLE "Kaktus"
INDEX 01 103:54:917
TRACK 22 AUDIO
PERFORMER "Marcel Woods"
TITLE "Monotone"
INDEX 01 109:52:052
TRACK 23 AUDIO
PERFORMER "Three Drives"
TITLE "Greece 2000 (Marcel Woods Remix)"
INDEX 01 114:27:092
TRACK 24 AUDIO
PERFORMER "ID"
TITLE "ID"
INDEX 01 120:48:956
TRACK 25 AUDIO
PERFORMER "Marcel Woods"
TITLE "Cherry Blossom"
INDEX 01 126:31:108
TRACK 26 AUDIO
PERFORMER "Marcel Woods"
TITLE "Advanced"
INDEX 01 133:40:482
TRACK 27 AUDIO
PERFORMER "Marcel Woods"
TITLE "On Fire"
INDEX 01 140:37:481
TRACK 28 AUDIO
PERFORMER "Louie Padilla"
TITLE "Sick (Maurizio Gubellini Remix)"
INDEX 01 146:31:605
TRACK 29 AUDIO
PERFORMER "Warmdue Project"
TITLE "King Of My Castle (Sander van Doorn Remix)"
INDEX 01 152:14:219
TRACK 30 AUDIO
PERFORMER "Daniele Papini & Riccardo Ferri"
TITLE "Knobers"
INDEX 01 155:34:259
TRACK 31 AUDIO
PERFORMER "Ronski Speed vs Rex Mundi"
TITLE "The Perspective Space (Markus Schulz Mash Up)"
INDEX 01 159:44:401
TRACK 32 AUDIO
PERFORMER "Ernesto vs Bastian"
TITLE "Thrill"
INDEX 01 166:13:086
TRACK 33 AUDIO
PERFORMER "Marcel Woods"
TITLE "New Feeling"
INDEX 01 171:29:531
TRACK 34 AUDIO
PERFORMER "Energy 52"
TITLE "Cafe Del Mar (John 00 Flemming Remix)"
INDEX 01 176:51:960
TRACK 35 AUDIO
PERFORMER "Marco V"
TITLE "False Light (ID Remix)"
INDEX 01 182:19:489
TRACK 36 AUDIO
PERFORMER "Jochen Miller vs Rank 1"
TITLE "And Then (Rank 1 Remix)"
INDEX 01 186:54:495
TRACK 37 AUDIO
PERFORMER "[Encore] Marcel Woods"
TITLE "Beautiful Mind"
INDEX 01 191:53:777
0

#15 Пользователь офлайн   dextaa 

  • Новичок
  • Иконка
  • Группа: Участник
  • Сообщений: 21
  • Регистрация: 01-February 08
  • Пол: Мужской
  • Откуда: RU, NN
Репутация: 0
Нейтральная

Отправлено 02 February 2008 - 09:49

был на нём когда он приезжал к нам в Нижний, в декабре, есть видео оттуда(если вдруг кому надо) он просто уничтожитель с огромным стажем работы...всё на высшем уровне!

tnx for share :rolleyes:
0

  • 2 Страниц +
  • 1
  • 2
  • Вы не можете создать новую тему
  • Вы не можете ответить в тему

1 человек читают эту тему
0 пользователей, 1 гостей, 0 скрытых