In.Trance Community: Paul Van Dyk - Live At Mayday Datapop, Dortmund - 30-04-2000 - In.Trance Community

Перейти к содержимому

Страница 1 из 1
  • Вы не можете создать новую тему
  • Вы не можете ответить в тему

Paul Van Dyk - Live At Mayday Datapop, Dortmund - 30-04-2000

#1 Пользователь офлайн   mohito 

  • Новичок
  • Иконка
  • Группа: Участник
  • Сообщений: 65
  • Регистрация: 09-November 07
Репутация: 0
Нейтральная

  Отправлено 11 November 2007 - 13:27

paul van dyk - live at mayday datapop dortmund - 30-04-2000

Треклист:
01 [00:00] BT - Sequences
02 [02:20] En-Motion - Truth (Pulser Mix)
03 [07:53] DJ Remy - Pumped Up
04 [12:52] John Rees vs. Helios - Beta Blocker
05 [17:30] Darude - Sandstorm
06 [23:00] Des Mitchell - Welcome To The Dance (Part 2)
07 [28:30] Paul Van Dyk - For An Angel (Paul Van Dyk E-Werk Club Mix)
08 [34:23] VDM – No Hesitation (Deflection EP)
09 [37:52] Bill Hamel – Perspectives 2 (Expansion Mix)
10 [40:42] The Infernal Machine - Realistic
11 [44:50] Paul Van Dyk - Columbia
12 [49:24] Paul Van Dyk - Tell Me Why ((Vandit Mix Re-Edit)
13 [55:25] Paul Van Dyk – We Are Alive (Original Mix)
0

#2 Пользователь офлайн   mohito 

  • Новичок
  • Иконка
  • Группа: Участник
  • Сообщений: 65
  • Регистрация: 09-November 07
Репутация: 0
Нейтральная

Отправлено 12 November 2007 - 10:47

Хм) наверно никому не нравится Пашка)
0

#3 Пользователь офлайн   Sense 

  • Гуру
  • Иконка
  • Группа: Участник
  • Сообщений: 2773
  • Регистрация: 10-December 06
  • Пол: Мужской
  • Откуда: S-pb
Репутация: 142
Хорошая

Отправлено 12 November 2007 - 11:10

Динамичный это типа под 145?
0

#4 Пользователь офлайн   mohito 

  • Новичок
  • Иконка
  • Группа: Участник
  • Сообщений: 65
  • Регистрация: 09-November 07
Репутация: 0
Нейтральная

Отправлено 13 November 2007 - 13:43

нет просто он очень энергичный по моему мнению ;)
0

#5 Пользователь офлайн   dreamy 

  • Гуру
  • Иконка
  • Группа: Участник
  • Сообщений: 1796
  • Регистрация: 14-June 07
  • Пол: Мужской
  • Откуда: minsk, by
Репутация: 15
Нейтральная

Отправлено 13 November 2007 - 13:47

Сет хороший, только лучше бы его наверное в ретро постить.
0

#6 Пользователь офлайн   mohito 

  • Новичок
  • Иконка
  • Группа: Участник
  • Сообщений: 65
  • Регистрация: 09-November 07
Репутация: 0
Нейтральная

Отправлено 13 November 2007 - 14:18

Просмотр сообщенияdreamy (13.11.2007, 16:47) писал:

Сет хороший, только лучше бы его наверное в ретро постить.

ну теперь тока модеры могут перенести тему...просто когда я создавал, я не видел тему ретро :crazy:
0

#7 Пользователь офлайн   Klёпа 

  • ..::Moving forward::..
  • Иконка
  • Группа: Участник
  • Сообщений: 2366
  • Регистрация: 16-September 07
  • Пол: Женский
  • Откуда: ClubCity
Репутация: 58
Хорошая

Отправлено 14 December 2007 - 20:13

спасибо, послушаю =)
0

#8 Пользователь офлайн   map 

  • Осваиваюсь
  • Иконка
  • Группа: Участник
  • Сообщений: 259
  • Регистрация: 20-October 07
  • Пол: Мужской
  • Интересы: XC
Репутация: 2
Нейтральная

Отправлено 14 December 2007 - 20:25

Это первый лайв, который я услышал :) Можно сказать, с него у меня все и началось )
Вообще проперся тогда. До сих пор один из моих любимых. Все треки нравятся.
Хорошо отжигал вандайк в молодости ))

Есть cue к нему
TITLE "Live at Mayday 2000"
PERFORMER "Paul van Dyk"
FILE "Paul_Van_Dyk-Live_At_Mayday_2000-radio_rip.mp3" BINARY
  TRACK 01 AUDIO
	TITLE "Sequences"
	PERFORMER "BT"
	INDEX 01 00:00:00
  TRACK 02 AUDIO
	TITLE "Truth"
	PERFORMER "En Motion"
	INDEX 01 01:54:05
  TRACK 03 AUDIO
	TITLE "Pumped Up"
	PERFORMER "Remy"
	INDEX 01 07:00:45
  TRACK 04 AUDIO
	TITLE "Beta Blocker"
	PERFORMER "John Rees vs. Helios"
	INDEX 01 11:51:70
  TRACK 05 AUDIO
	TITLE "Sandstorm"
	PERFORMER "Darude"
	INDEX 01 16:29:20
  TRACK 06 AUDIO
	TITLE "Welcome to the Dance"
	PERFORMER "Des Mitchell"
	INDEX 01 22:00:50
  TRACK 07 AUDIO
	TITLE "For an Angel"
	PERFORMER "Paul van Dyk"
	INDEX 01 27:50:00
  TRACK 08 AUDIO
	TITLE "Deflection EP Part 1"
	PERFORMER "VDM"
	INDEX 01 33:48:70
  TRACK 09 AUDIO
	TITLE "Expansion"
	PERFORMER "Bill Hamel"
	INDEX 01 36:25:25
  TRACK 10 AUDIO
	TITLE "Realistic"
	PERFORMER "The Infernal Machine"
	INDEX 01 39:27:45
  TRACK 11 AUDIO
	TITLE "Columbia"
	PERFORMER "Paul van Dyk"
	INDEX 01 44:24:20
  TRACK 12 AUDIO
	TITLE "Tell Me Why"
	PERFORMER "Paul van Dyk"
	INDEX 01 45:38:00
  TRACK 13 AUDIO
	TITLE "Alive"
	PERFORMER "Paul van Dyk"
	INDEX 01 50:40:70

0

#9 Пользователь офлайн   Klёпа 

  • ..::Moving forward::..
  • Иконка
  • Группа: Участник
  • Сообщений: 2366
  • Регистрация: 16-September 07
  • Пол: Женский
  • Откуда: ClubCity
Репутация: 58
Хорошая

Отправлено 14 December 2007 - 20:28

скорость скачки 7 кб/с...
сделайте зркало на другой файлообменник :)
0

#10 Пользователь офлайн   Klёпа 

  • ..::Moving forward::..
  • Иконка
  • Группа: Участник
  • Сообщений: 2366
  • Регистрация: 16-September 07
  • Пол: Женский
  • Откуда: ClubCity
Репутация: 58
Хорошая

Отправлено 14 December 2007 - 22:39

скачала!!!! :) :good:
взрывной сет!!! :D
0

#11 Пользователь офлайн   map 

  • Осваиваюсь
  • Иконка
  • Группа: Участник
  • Сообщений: 259
  • Регистрация: 20-October 07
  • Пол: Мужской
  • Интересы: XC
Репутация: 2
Нейтральная

Отправлено 15 December 2007 - 08:56

А я перезалил :blink:
Скрытый текст
[url="http://"http://ifolder.ru/4568469"]http://ifolder.ru/4568469[/url]

0

#12 Пользователь офлайн   Klёпа 

  • ..::Moving forward::..
  • Иконка
  • Группа: Участник
  • Сообщений: 2366
  • Регистрация: 16-September 07
  • Пол: Женский
  • Откуда: ClubCity
Репутация: 58
Хорошая

Отправлено 15 December 2007 - 08:58

вс равно спасибо, другим пригодиться =)
0

#13 Пользователь офлайн   mohito 

  • Новичок
  • Иконка
  • Группа: Участник
  • Сообщений: 65
  • Регистрация: 09-November 07
Репутация: 0
Нейтральная

Отправлено 15 December 2007 - 16:58

B)
0

Страница 1 из 1
  • Вы не можете создать новую тему
  • Вы не можете ответить в тему

1 человек читают эту тему
0 пользователей, 1 гостей, 0 скрытых